<?xml version="1.0" standalone="no"?>
<!DOCTYPE svg PUBLIC "-//W3C//DTD SVG 1.1//EN" "http://www.w3.org/Graphics/SVG/1.1/DTD/svg11.dtd" >
<svg xmlns="http://www.w3.org/2000/svg">
<metadata></metadata>
<defs>
<font id="kirvyregular" horiz-adv-x="1630" >
<font-face units-per-em="2048" ascent="1638" descent="-410" />
<missing-glyph horiz-adv-x="602" />
<glyph horiz-adv-x="0" />
<glyph horiz-adv-x="682" />
<glyph unicode=" "  horiz-adv-x="602" />
<glyph unicode="&#x09;" horiz-adv-x="602" />
<glyph unicode="&#xa0;" horiz-adv-x="602" />
<glyph unicode="!" horiz-adv-x="438" d="M389 101q0 52 33 87t84 35q50 0 82.5 -35t32.5 -87q0 -51 -32.5 -86t-84.5 -35q-50 0 -82.5 35t-32.5 86zM433 621v1005h144v-1005h-144z" />
<glyph unicode="&#x22;" horiz-adv-x="585" d="M123 1255v371h143v-371h-143zM292 1255v371h143v-371h-143z" />
<glyph unicode="#" horiz-adv-x="1462" d="M72 -20l184 555h-147v141h194l98 297h-153v141h200l170 512h149l-170 -512h409l170 512h149l-170 -512h162v-141h-209l-98 -297h167v-141h-214l-184 -555l-150 -1l185 556h-409l-184 -555h-149zM452 676h409l98 297h-409z" />
<glyph unicode="$" horiz-adv-x="1179" d="M68 311l117 82l41 -59q21 -30 39.5 -49.5t49.5 -40t76 -33t106 -17.5v568q-157 46 -234 97q-75 50 -113 118q-44 77 -44 177q0 175 110 276q101 93 281 109v87h144v-90q90 -15 168.5 -66.5t135.5 -132.5l41 -59l-118 -82l-41 59q-74 106 -186 135v-520q166 -47 246 -100 q74 -48 112 -116q43 -76 43 -175q0 -89 -30 -166q-32 -82 -91 -139q-106 -103 -280 -122v-72h-144v70q-134 9 -223 53q-92 46 -165 149zM249 1154q0 -60 22 -101.5t71 -73.5q56 -37 155 -68v484q-128 -13 -188 -72.5t-60 -168.5zM641 196q124 18 191 92t67 191 q0 59 -21.5 99t-69.5 72q-58 38 -167 71v-525z" />
<glyph unicode="%" horiz-adv-x="1345" d="M80 -20l951 1646h159l-950 -1646h-160zM82 1313q0 121 82 207t198 86t198 -86t82 -207t-82 -207.5t-198 -86.5t-198 86.5t-82 207.5zM220 1313q0 -65 42 -110t100 -45t100 45t42 110t-42 109.5t-100 44.5t-100 -44.5t-42 -109.5zM641 273q0 121 82 207t198 86t198 -86 t82 -207t-82 -207t-198 -86t-198 86t-82 207zM780 273q0 -65 41.5 -109.5t99.5 -44.5t100 44.5t42 109.5t-42 110t-100 45t-99.5 -45t-41.5 -110z" />
<glyph unicode="&#x26;" horiz-adv-x="1425" d="M67 323q-32 196 112 381q83 108 224 192q-15 32 -32 75q-96 243 -72 403q18 118 101 184q85 67 226 67q154 0 254 -82q94 -79 114 -202q23 -147 -60 -280q-89 -141 -261 -198q-42 -13 -81 -30q56 -105 137 -225q105 -156 211 -274q143 213 143 587v20h142v-20 q0 -211 -43 -379q-44 -172 -131 -297q-2 -3 -6 -8.5t-5 -6.5q147 -141 245 -171l20 -6l-42 -136l-20 6q-129 41 -299 202q-169 -146 -409 -146q-192 0 -319 97q-124 94 -149 247zM207 345q17 -103 104 -163t224 -60q185 0 310 105q-125 139 -234 301q-85 126 -145 240 q-111 -68 -175 -151q-106 -137 -84 -272zM440 1352q-22 -140 90 -392q55 24 98 38q83 28 139 83t76 116.5t11 120.5q-13 78 -72 121.5t-156 43.5q-55 0 -92.5 -11.5t-56 -33.5t-26 -40.5t-11.5 -45.5z" />
<glyph unicode="'" horiz-adv-x="507" d="M97 1324l13 15q6 6 19 25.5t31 74t18 115.5v69h144v-69q0 -54 -10.5 -105.5t-24.5 -85.5t-31 -63t-26 -41t-13 -16l-14 -15z" />
<glyph unicode="(" horiz-adv-x="757" d="M113 671q0 382 133 656q70 143 164.5 221t202.5 78h20v-141h-20q-62 0 -121 -52q-67 -57 -120 -167q-119 -246 -119 -595q0 -348 119 -594q54 -111 120 -168q59 -52 121 -52h20v-141h-20q-108 0 -202.5 78t-164.5 221q-133 274 -133 656z" />
<glyph unicode=")" horiz-adv-x="735" d="M78 -143h20q62 0 121 52q66 57 120 168q119 246 119 594q0 349 -119 595q-53 110 -120 167q-59 52 -121 52h-20v141h20q108 0 202.5 -78t164.5 -221q133 -274 133 -656t-133 -656q-70 -143 -164.5 -221t-202.5 -78h-20v141z" />
<glyph unicode="*" horiz-adv-x="1085" d="M86 1105v140h291l-230 305l111 84l259 -343l260 343l111 -84l-230 -305h291v-140h-291l230 -305l-111 -84l-260 343l-259 -343l-111 84l230 305h-291z" />
<glyph unicode="+" horiz-adv-x="1286" d="M90 535v143h453v553h143v-553h453v-143h-453v-553h-143v553h-453z" />
<glyph unicode="," horiz-adv-x="462" d="M179 -194l18 7q3 1 8.5 4t19 14.5t23.5 26.5t18.5 42t8.5 59v195h143v-195q0 -133 -81 -218q-45 -47 -89 -62l-19 -7z" />
<glyph unicode="-" horiz-adv-x="872" d="M115 535v143h604v-143h-604z" />
<glyph unicode="." horiz-adv-x="454" d="M184 103q0 52 33 87t84 35q50 0 82 -35t32 -87t-32 -86.5t-84 -34.5q-50 0 -82.5 35t-32.5 86z" />
<glyph unicode="/" horiz-adv-x="1144" d="M177 -20l546 1646h151l-546 -1646h-151z" />
<glyph unicode="0" horiz-adv-x="1294" d="M102 803q0 237 33 392q38 180 157 298q135 133 328 133q192 0 327 -133q120 -119 158 -298q33 -155 33 -392t-33 -392q-38 -179 -158 -298q-135 -133 -327 -133q-193 0 -328 133q-119 118 -157 298q-33 155 -33 392zM246 803q0 -224 29 -362q13 -62 40 -116.5t68 -101 t102.5 -74t134.5 -27.5t134.5 27.5t102.5 74t68 101t40 116.5q29 138 29 362t-29 362q-13 62 -40 116.5t-68 101t-102.5 73.5t-134.5 27t-134.5 -27t-102.5 -73.5t-68 -101t-40 -116.5q-29 -138 -29 -362z" />
<glyph unicode="1" horiz-adv-x="739" d="M74 1166v143h73q6 0 26.5 11t59.5 41.5t79 73.5q49 52 88 112q30 48 30 59v20h143v-1646h-143v1371l-14 -14q-66 -71 -127 -114q-80 -57 -142 -57h-73z" />
<glyph unicode="2" horiz-adv-x="1128" d="M90 -21v72q0 290 153 494q41 55 100.5 109.5t95.5 81.5t112 82q53 38 81.5 59t68 54.5t60 60t42 61.5t30.5 74t9 84q0 6 -2.5 23t-13 53t-26.5 65q-74 131 -253 131q-138 0 -241 -77q-22 -17 -41 -36.5t-27 -30.5l-8 -11l-10 -17l-122 73l10 18q32 56 107 114 q143 110 332 110q78 0 143 -18.5t110 -50.5t75 -65.5t52 -73.5q25 -45 39 -96.5t16.5 -74t2.5 -34.5q0 -176 -115 -312q-31 -36 -74.5 -74.5t-73.5 -61t-88 -63.5q-51 -37 -81 -59t-75.5 -60t-72.5 -68.5t-60.5 -75.5t-52.5 -90t-35 -103.5t-21 -123.5h741v-143h-887z" />
<glyph unicode="3" horiz-adv-x="1196" d="M62 1344l37 62q33 58 107 115q143 110 334 110q197 0 326 -134q58 -60 89.5 -138t31.5 -160q0 -181 -139 -298q-27 -23 -64 -44q72 -32 124 -77q151 -128 151 -321q0 -88 -34.5 -172t-96.5 -149q-67 -70 -158.5 -107.5t-193.5 -37.5q-205 0 -361 119q-34 27 -63 58 t-39.5 45.5t-13.5 20.5l-11 18l123 73l11 -17q2 -4 9.5 -14t28.5 -32t46 -41q116 -87 270 -87q102 0 181.5 48.5t119 121t39.5 153.5q0 127 -100 211q-123 104 -387 104h-21l1 144h20q216 0 326 93q89 75 89 188t-84 201t-220 88q-62 0 -118 -16t-90 -37.5t-61 -46.5 t-37 -38t-12 -17l-37 -62z" />
<glyph unicode="4" horiz-adv-x="1265" d="M84 696l726 930h131v-916h187v-143h-187v-587h-143v587h-713zM276 710h522v667z" />
<glyph unicode="5" horiz-adv-x="1193" d="M72 360l132 55l27 -66q43 -103 131 -164.5t193 -61.5q146 0 250 111.5t104 269.5q0 159 -104 270.5t-250 111.5q-147 0 -251 -113l-41 -44l-133 5l36 892h793v-143h-655l-22 -540q37 26 76 43q95 43 197 43q207 0 353 -155q70 -74 107 -170t37 -200q0 -216 -144 -369 q-146 -155 -353 -155q-148 0 -272.5 85.5t-183.5 228.5z" />
<glyph unicode="6" horiz-adv-x="1269" d="M129 896q0 39 2.5 109.5t8 113t16.5 102t27.5 101.5t42 86.5t58.5 78.5q128 134 360 134q120 0 225 -58q102 -57 169 -155l41 -58l-117 -81l-41 58q-50 73 -122.5 112.5t-154.5 39.5q-169 0 -257 -91q-126 -130 -120 -525l5 5t4 5q145 157 349 157t349 -157 q68 -74 105 -170t37 -200t-37 -200t-105 -170q-145 -157 -349 -157t-349 157q-76 82 -111 198t-35 341q0 32 -0.5 108.5t-0.5 115.5zM277 503q0 -159 102.5 -271.5t245.5 -112.5t245.5 112.5t102.5 271.5t-102.5 271.5t-245.5 112.5t-245.5 -112.5t-102.5 -271.5z" />
<glyph unicode="7" horiz-adv-x="1304" d="M90 1483v143h1060v-126l-4 -5q-181 -237 -369 -549q-183 -305 -278.5 -547t-95.5 -399v-20h-143v20q0 203 126 502q96 228 269 518q125 208 306 463h-871z" />
<glyph unicode="8" horiz-adv-x="1220" d="M90 452q0 197 146 335q42 39 92 68q-33 21 -61 47q-135 124 -135 301t135 301q133 122 319 122t319 -122q135 -124 135 -301t-135 -301q-26 -25 -62 -48q46 -27 90 -68q146 -138 146 -334q0 -95 -38 -181.5t-109 -153.5q-145 -137 -348 -137t-348 137q-146 138 -146 335z M233 452q0 -135 102.5 -232t248.5 -97t248.5 97t102.5 232t-102.5 231.5t-248.5 96.5t-248.5 -96.5t-102.5 -231.5zM275 1203q0 -115 91 -197t220 -82t220 82t91 197t-91 197.5t-220 82.5t-220 -82.5t-91 -197.5z" />
<glyph unicode="9" horiz-adv-x="1269" d="M94 1095q0 104 37 200t105 170q144 156 349 156t349 -156q50 -54 79.5 -114t48 -166t18.5 -260q0 -32 0.5 -108.5t0.5 -115t-2.5 -109t-8 -113t-16.5 -102.5t-27.5 -101.5t-42 -86t-58.5 -78.5q-129 -135 -360 -135q-118 0 -225 59q-102 57 -169 155l-41 58l117 81 l41 -58q50 -73 122.5 -112.5t154.5 -39.5q170 0 257 90q126 131 120 526q-2 -2 -4.5 -5.5t-4.5 -5.5q-144 -156 -349 -156t-349 156q-142 154 -142 371zM237 1095q0 -159 102.5 -272t245.5 -113t245.5 113t102.5 272t-102.5 271.5t-245.5 112.5t-245.5 -112.5t-102.5 -271.5 z" />
<glyph unicode=":" horiz-adv-x="460" d="M184 103q0 52 33 87t84 35q50 0 82 -35t32 -87t-32 -86.5t-84 -34.5q-50 0 -82.5 35t-32.5 86zM184 905q0 52 33 86.5t84 34.5q50 0 82 -34.5t32 -86.5t-32 -87t-84 -35q-50 0 -82.5 35.5t-32.5 86.5z" />
<glyph unicode=";" horiz-adv-x="489" d="M179 -194l18 7q3 1 8.5 4t19 14.5t23.5 26.5t18.5 42t8.5 59v195h143v-195q0 -133 -81 -218q-45 -47 -89 -62l-19 -7zM231 905q0 52 32.5 86.5t83.5 34.5t83 -34.5t32 -86.5t-32 -87t-84 -35q-50 0 -82.5 35.5t-32.5 86.5z" />
<glyph unicode="&#x3c;" horiz-adv-x="1316" d="M84 584v84l1020 613l73 -121l-890 -534l890 -533l-73 -121z" />
<glyph unicode="=" horiz-adv-x="1333" d="M115 306v144h1048v-144h-1048zM115 779v144h1048v-144h-1048z" />
<glyph unicode="&#x3e;" horiz-adv-x="1318" d="M80 93l890 533l-890 534l73 121l1020 -613v-84l-1020 -612z" />
<glyph unicode="?" horiz-adv-x="1101" d="M381 1353l11 15l1 2l28 41q71 102 172.5 158.5t216.5 56.5q241 0 365 -117q114 -106 114 -288q0 -207 -97 -325q-27 -32 -64 -60.5t-61.5 -42.5t-65.5 -34q-78 -39 -102 -63.5t-24 -77.5v-70h-140v70q0 40 8 73.5t25.5 59.5t34 45t44.5 37t44.5 27.5t47.5 24.5 q34 17 48 24.5t42 25.5t40.5 32.5t31 40t26.5 54t14.5 69.5t6.5 90q0 133 -82.5 198.5t-255.5 65.5q-79 0 -150.5 -40t-122.5 -114l-40 -58zM705 98q0 51 32.5 84.5t81.5 33.5t80.5 -33.5t31.5 -84.5q0 -50 -31.5 -84t-82.5 -34q-49 0 -80.5 34t-31.5 84z" />
<glyph unicode="@" horiz-adv-x="2091" d="M96 616q0 207 70 400q68 185 191 328q125 144 287 224q169 83 356 83q186 0 355 -83q162 -80 287 -224q124 -144 193 -333q68 -188 68 -395q0 -73 -21.5 -176.5t-62.5 -196.5q-50 -112 -117 -179q-87 -87 -196 -87q-108 0 -166 71q-32 39 -43 93q-52 -46 -113 -76 q-99 -48 -208 -48t-208 48q-94 46 -167 130t-112 192.5t-39 226.5t39 226t112 192t167 130q101 49 208 49t208 -49q94 -46 167 -130q47 -55 79 -117l58 291l96 -19q-107 150 -259.5 235.5t-324.5 85.5q-153 0 -293.5 -70.5t-243 -189.5t-163 -284.5t-60.5 -347.5t60.5 -347 t163 -284t243 -189.5t293.5 -70.5q138 0 263 55q78 34 147 86l58 43l86 -114l-57 -43q-82 -63 -177 -104q-155 -67 -320 -67q-187 0 -356 83q-162 80 -287 224q-123 142 -191 329q-70 193 -70 399zM594 614q0 -189 112.5 -321.5t269.5 -132.5t269.5 132.5t112.5 321.5 t-112.5 321t-269.5 132t-269.5 -132t-112.5 -321zM1436 186.5q3 -32.5 15 -47.5q15 -18 55 -18q50 0 95 45q48 46 87 135q33 76 52.5 166t19.5 149q0 284 -140 516l-183 -902q-4 -11 -1 -43.5z" />
<glyph unicode="A" horiz-adv-x="1468" d="M61 -20l575 1646h123l574 -1646h-149l-213 611q-57 -20 -135 -20h-303q-31 0 -56.5 -7.5t-40 -17t-26 -22t-14.5 -18.5l-5 -10l-180 -516h-150zM464 706q34 6 69 6h303q62 0 88 12l-227 650z" />
<glyph unicode="B" horiz-adv-x="1456" d="M131 -20v1646h683q176 0 300.5 -124.5t124.5 -300.5q0 -107 -49.5 -199.5t-133.5 -150.5q51 -31 90 -70q137 -137 137 -332t-137 -332q-135 -135 -331 -137h-684zM275 123h445h94q135 0 230.5 95.5t95.5 230.5t-95.5 230.5t-230.5 95.5l-475 1q-34 0 -64 7v-660zM275 960 q2 -18 10 -26q13 -15 54 -15h475q116 0 199 83t83 199t-83 199t-199 83h-539v-523z" />
<glyph unicode="C" horiz-adv-x="1499" d="M102 803q0 163 49.5 311.5t142.5 264.5q91 115 214 180q125 67 268 67q163 0 308 -91q136 -86 230 -237l38 -61l-123 -76l-38 62q-76 124 -185 191.5t-230 67.5q-142 0 -263.5 -90t-193.5 -246.5t-72 -342.5t72 -342.5t193.5 -246.5t263.5 -90q121 0 230 67.5t185 191.5 l38 62l123 -76l-38 -61q-94 -151 -230 -237q-145 -91 -308 -91q-143 0 -268 67q-123 65 -214 180q-93 116 -142.5 264.5t-49.5 311.5z" />
<glyph unicode="D" horiz-adv-x="1468" d="M131 -18v1644h493q137 0 265 -67q118 -62 212 -179q92 -115 141 -263.5t49 -310.5q0 -165 -51 -315q-51 -151 -139 -262q-93 -117 -212 -181q-127 -68 -266 -68zM274 125l350 -2q102 0 195.5 50t168.5 145q159 203 159 488q0 185 -71 341t-191.5 246t-260.5 90h-350 v-1358z" />
<glyph unicode="E" horiz-adv-x="1302" d="M131 -20v1646h997v-143h-854v-572q29 7 65 7h789v-143h-789q-40 0 -54 -16q-11 -11 -11 -29v-607h854v-143h-997z" />
<glyph unicode="F" horiz-adv-x="1323" d="M131 -20v1646h1049v-143h-906v-573q19 5 55 7h693v-143h-683q-41 0 -54 -15q-4 -4 -7 -12t-4 -13v-6v-748h-143z" />
<glyph unicode="G" horiz-adv-x="1613" d="M102 803q0 162 49.5 311t142.5 265q90 114 213 180q125 67 267 67q172 0 320 -99q141 -94 233 -256l10 -18l-126 -70l-10 17q-75 133 -188 207.5t-239 74.5q-106 0 -203.5 -53.5t-168.5 -143.5t-113.5 -216.5t-42.5 -265.5t42.5 -265.5t113.5 -217t168.5 -144 t203.5 -53.5q81 0 167 46t157.5 124t122.5 191.5t63 238.5h-49.5h-67t-74 -0.5t-74 -0.5h-63.5h-45h-17q-76 0 -120 -41q-26 -25 -26 -36l-7 -18l-135 50l7 19q15 44 62 89q79 75 203 81l407 1h75q29 0 50 -21t21 -51q0 -162 -55 -312q-52 -142 -146 -257 q-96 -117 -215 -181.5t-241 -64.5q-142 0 -267 67q-123 66 -213 180q-93 116 -142.5 265t-49.5 311z" />
<glyph unicode="H" horiz-adv-x="1413" d="M131 -20v1646h143v-738q67 30 141 30h514q75 0 119 41q12 12 22 27v640h143v-1646h-143v823q-60 -28 -132 -29h-523q-74 0 -119 -42q-14 -14 -22 -26v-726h-143z" />
<glyph unicode="I" horiz-adv-x="430" d="M131 -20v1646h143v-1646h-143z" />
<glyph unicode="J" horiz-adv-x="929" d="M78 -20v143h20q141 0 262 89.5t192.5 246t71.5 341.5v826h143v-826q0 -162 -49 -310.5t-141 -263.5q-93 -116 -213 -179q-128 -67 -266 -67h-20z" />
<glyph unicode="K" horiz-adv-x="1372" d="M131 -20v1646h143v-659q9 8 11 9l696 650h210l-812 -758l-1 -1q-23 -18 -23 -30q0 -4 6.5 -13.5t10.5 -12.5v-1h1l899 -830h-212l-780 720l-6 5v-725h-143z" />
<glyph unicode="L" horiz-adv-x="1333" d="M131 -20v1646h143v-1503h906v-143h-1049z" />
<glyph unicode="M" horiz-adv-x="1658" d="M131 -20v1646h140l517 -1416l517 1416h141v-1646h-143v1220l-446 -1220h-138l-445 1220v-1220h-143z" />
<glyph unicode="N" horiz-adv-x="1400" d="M131 -20v1646h142l784 -1439v1439h144v-1646h-194l-733 1344v-1344h-143z" />
<glyph unicode="O" d="M102 803q0 162 49.5 311t142.5 265q89 112 213 179q127 68 267 68t267 -68q124 -67 213 -179q93 -116 142 -264.5t49 -311.5t-49 -311.5t-142 -264.5q-90 -114 -213 -180q-125 -67 -267 -67t-267 67q-123 66 -213 180q-93 116 -142.5 265t-49.5 311zM246 803 q0 -139 42.5 -265.5t113.5 -217t168.5 -144t203.5 -53.5t203.5 53.5t168.5 144t113.5 217t42.5 265.5t-42.5 265.5t-113.5 216.5t-168.5 143.5t-203.5 53.5t-203.5 -53.5t-168.5 -143.5t-113.5 -216.5t-42.5 -265.5z" />
<glyph unicode="P" horiz-adv-x="1390" d="M131 -20v1646h683q175 0 299.5 -125.5t124.5 -301.5q0 -175 -125 -300t-300 -125h-475q-40 0 -54 -16q-7 -8 -10 -25v-753h-143zM274 910q26 6 56 7l483 1q116 0 198.5 82.5t82.5 198.5q0 117 -82.5 200.5t-198.5 83.5l-539 -1v-572z" />
<glyph unicode="Q" d="M102 803q0 162 49.5 311t142.5 265q90 114 213 180q125 67 267 67t267 -67q123 -66 213 -180q93 -116 142 -264.5t49 -311.5t-49 -311.5t-142 -264.5q-32 -37 -49 -56q46 -58 105 -58l19 1l9 -143l-20 -2h-8q-47 0 -98 21q-68 27 -118 89q-26 -18 -53 -32 q-125 -67 -267 -67t-267 67q-123 66 -213 180q-93 116 -142.5 265t-49.5 311zM246 803q0 -139 42.5 -265.5t113.5 -216.5t168.5 -143.5t203.5 -53.5t203.5 53.5t168.5 143.5t113.5 216.5t42.5 265.5t-42.5 265.5t-113.5 216.5t-168.5 143.5t-203.5 53.5t-203.5 -53.5 t-168.5 -143.5t-113.5 -216.5t-42.5 -265.5z" />
<glyph unicode="R" horiz-adv-x="1421" d="M131 -20v1646h682q175 0 300 -125.5t125 -301.5q0 -146 -88.5 -259t-225.5 -151q10 -15 19 -32v-1l345 -776h-158l-320 720q-19 33 -42 51t-32 20.5t-15 2.5h-383q-40 0 -54 -16q-7 -8 -10 -25v-753h-143zM274 910q26 6 56 7l483 1q116 0 198.5 82.5t82.5 198.5 t-82.5 199.5t-198.5 83.5h-539v-572z" />
<glyph unicode="S" horiz-adv-x="1423" d="M63 256l114 85l44 -55q32 -40 59.5 -64.5t78 -50.5t128 -38.5t184.5 -12.5q205 0 320.5 88.5t115.5 241.5q0 53 -19.5 94.5t-52 70.5t-92.5 55t-121 44t-159 42q-87 21 -132.5 33.5t-114.5 37.5t-118 53q-91 53 -138 127q-55 86 -55 196q0 191 136 303q145 120 430 120 q134 0 253.5 -58t203.5 -164l45 -56l-115 -85l-43 55q-64 80 -153.5 124t-190.5 44q-231 0 -337 -87q-85 -70 -85 -196q0 -46 12 -82t40 -65t61.5 -50.5t90 -42t109.5 -36t136 -35.5t130.5 -33t115 -38t116.5 -53q90 -54 137 -125q53 -81 53 -193q0 -99 -37 -183 q-40 -90 -113 -152q-158 -135 -429 -135q-226 0 -361 59q-113 49 -203 161z" />
<glyph unicode="T" horiz-adv-x="1452" d="M78 1482v144h1227v-144h-558v-1502h-143v1502h-526z" />
<glyph unicode="U" horiz-adv-x="1366" d="M123 507v1119h143v-1119q0 -158 112.5 -270.5t270.5 -112.5t270.5 112.5t112.5 270.5v1119h144v-1119q0 -105 -40.5 -201.5t-114.5 -170.5t-170.5 -114t-201.5 -40t-201.5 40t-170.5 114q-154 154 -154 372z" />
<glyph unicode="V" horiz-adv-x="1480" d="M61 1626h152l492 -1408l491 1408h152l-574 -1646h-138z" />
<glyph unicode="W" horiz-adv-x="2254" d="M61 1626h147l481 -1376l334 1226h100l333 -1226l482 1376h147l-576 -1646h-123l-313 1152l-313 -1152h-123z" />
<glyph unicode="X" horiz-adv-x="1583" d="M56 -21l610 824l-610 823h173l524 -706l524 706h174l-611 -823l612 -824l-175 1l-524 706l-524 -706z" />
<glyph unicode="Y" horiz-adv-x="1595" d="M49 1626h176l534 -719l535 719h176l-611 -822q-29 -78 -29 -170v-654h-141v654q0 87 -30 170z" />
<glyph unicode="Z" horiz-adv-x="1544" d="M80 -20v111l1103 1391h-1063v144h1273l-1 -111l-1103 -1392h1063v-143h-1272z" />
<glyph unicode="[" horiz-adv-x="520" d="M133 -303v1929h289v-143h-146v-1643h146v-143h-289z" />
<glyph unicode="\" horiz-adv-x="868" d="M66 1626h151l546 -1646h-151z" />
<glyph unicode="]" horiz-adv-x="524" d="M78 -160h145v1643h-145v143h289v-1929h-289v143z" />
<glyph unicode="^" horiz-adv-x="1032" d="M86 1336l423 295l388 -297l-87 -114l-305 234l-337 -235l-12 17z" />
<glyph unicode="_" horiz-adv-x="1314" d="M102 -20v143h1049v-143h-1049z" />
<glyph unicode="`" horiz-adv-x="462" d="M103 1535l106 96l14 -15q4 -4 13 -15.5t26 -41t30.5 -63t24 -85t10.5 -105.5v-69h-143v69q0 38 -7 74t-16.5 59.5t-20.5 43.5t-16.5 27.5t-7.5 9.5z" />
<glyph unicode="a" horiz-adv-x="1146" d="M86 347q0 157 136 265q128 102 308 102h249q25 0 36 11q14 14 15 47v67q0 91 -82 157t-200 66q-76 0 -141 -29.5t-103 -80.5l-43 -58l-115 86l43 58q59 79 154.5 123.5t204.5 44.5q173 0 296 -103q130 -108 130 -264v-492q0 -157 -136 -265q-130 -103 -308 -103t-308 103 q-136 108 -136 265zM230 347q0 -88 82 -153q90 -71 218 -71t218 71q82 65 82 153v229q-22 -5 -54 -5l-246 -1q-128 0 -218 -71q-82 -65 -82 -152z" />
<glyph unicode="b" horiz-adv-x="1187" d="M131 -20v1646h144v-394q0 -21 10 -32q13 -15 54 -15h83q121 0 231 -45.5t195 -130.5t131 -195.5t46 -231.5t-45.5 -230.5t-131.5 -195.5q-85 -85 -195 -130.5t-231 -45.5h-291zM275 123h147q124 0 230 61.5t168 167.5t62 230t-62 230t-168 168t-230 62h-83q-34 0 -64 7 v-926z" />
<glyph unicode="c" horiz-adv-x="1146" d="M98 592q0 118 38 231t109 199t164 134q98 50 205 50q114 0 206 -44t151 -124l43 -57l-115 -86l-43 58q-38 51 -102.5 80.5t-139.5 29.5q-153 0 -262.5 -136t-109.5 -335t109.5 -334t262.5 -135q75 0 139.5 29.5t102.5 80.5l43 57l115 -85l-43 -58q-60 -80 -153 -124 t-204 -44q-106 0 -205 51q-93 48 -164 134t-109 198t-38 230z" />
<glyph unicode="d" horiz-adv-x="1177" d="M94 582q0 121 46 231.5t131 195.5t195 130.5t231 45.5h83q41 0 54 15q4 5 7 13t3 13l1 6v394h143v-1646h-291q-121 0 -231 45.5t-195 130.5q-86 86 -131.5 195.5t-45.5 230.5zM238 582q0 -124 61.5 -230t167.5 -167.5t230 -61.5h148v926q-29 -7 -65 -7h-83 q-124 0 -230 -62t-167.5 -168t-61.5 -230z" />
<glyph unicode="e" horiz-adv-x="1169" d="M98 593q0 250 147 428q72 88 164 135q97 50 205 50q177 0 286 -89q107 -88 107 -219q0 -66 -31.5 -126.5t-87.5 -104.5q-123 -96 -322 -96h-280q-16 0 -23 -7q-10 -9 -13.5 -22.5t-2.5 -22.5l1 -9v-1q24 -167 128 -276.5t239 -109.5q180 0 262 110l43 58l115 -86l-43 -57 q-127 -168 -377 -168q-107 0 -202.5 47.5t-168.5 136.5q-99 122 -132 287l-2 7q-1 7 -3 19.5t-4 28.5t-3.5 39.5t-1.5 47.5zM254 712q15 2 34 2h278q151 0 233 65q64 50 64 119q0 64 -62.5 114.5t-185.5 50.5q-127 0 -228 -99t-133 -252z" />
<glyph unicode="f" horiz-adv-x="753" d="M125 -20v1174q0 194 127 332q62 67 144 103.5t171 36.5h72v-143h-72q-112 0 -196.5 -82t-99.5 -202q35 7 61 7h256v-144h-256q-41 0 -54 -15q-10 -10 -10 -29v-1038h-143z" />
<glyph unicode="g" horiz-adv-x="1177" d="M98 609q0 121 45.5 230.5t131.5 195.5q85 85 195 130.5t231 45.5l291 1l-1 -1276q0 -156 -129 -263q-123 -103 -295 -103q-109 0 -204 44.5t-154 123.5l-42 57l114 86l43 -57q39 -51 103.5 -81t139.5 -30q118 0 199.5 66t81.5 157v29q-2 19 -10 27q-13 15 -54 15l-83 -1 q-121 0 -230.5 45.5t-195.5 131.5t-131.5 195.5t-45.5 230.5zM242 609q0 -124 61.5 -230t167.5 -167.5t230 -61.5h83q34 0 64 -7v925h-147q-124 0 -230 -61.5t-167.5 -167.5t-61.5 -230z" />
<glyph unicode="h" horiz-adv-x="1200" d="M131 -20v1646h143v-371q0 -39 16 -55q5 -4 13 -7t13 -3l6 -1l251 1q89 0 171 -36.5t144 -103.5q128 -137 128 -332v-738h-144v738q0 137 -88 232.5t-211 95.5h-245q-28 0 -54 6v-1072h-143z" />
<glyph unicode="i" horiz-adv-x="421" d="M127 -20v1226h143v-1226h-143zM127 1473v28q0 30 21 50.5t51 20.5t50.5 -20.5t20.5 -50.5v-28q0 -30 -20.5 -51t-50.5 -21t-51 21t-21 51z" />
<glyph unicode="j" horiz-adv-x="739" d="M57 -287h72q123 0 211 95.5t88 232.5v1216h143v-1216q0 -193 -127 -331q-62 -68 -144 -104.5t-171 -36.5h-72v144zM428 1473v28q0 30 21 50.5t51 20.5t50.5 -20.5t20.5 -50.5v-28q0 -30 -20.5 -51t-50.5 -21t-51 21t-21 51z" />
<glyph unicode="k" horiz-adv-x="1239" d="M131 -20v1646h143v-925l637 505h231l-638 -505q6 -5 11 -10t9 -9.5t5 -5.5l600 -696h-190l-522 606q-15 15 -28 16q-6 0 -14 -4l-101 -80v-538h-143z" />
<glyph unicode="l" horiz-adv-x="430" d="M131 -20v1646h143v-1646h-143z" />
<glyph unicode="m" horiz-adv-x="1966" d="M119 -20v754q0 194 127 332q62 67 144 103.5t171 36.5t171 -36.5t144 -103.5q31 -34 56 -74q23 38 56 74q62 67 144 103.5t171 36.5q186 0 314 -139q128 -137 128 -333v-754h-143v754q0 137 -88 233t-211 96t-211 -96t-88 -233v-754h-144v754q0 137 -88 233t-211 96 t-211 -96t-88 -233v-754h-143z" />
<glyph unicode="n" horiz-adv-x="1187" d="M119 -20v754q0 194 127 332q62 67 144 103.5t171 36.5t171 -36.5t144 -103.5q128 -139 128 -332v-754h-144v754q0 137 -88 233t-211 96t-211 -96t-88 -233v-754h-143z" />
<glyph unicode="o" horiz-adv-x="1341" d="M98 593q0 251 153 429q75 87 169 134q102 50 212 50q109 0 211 -50q96 -48 170 -134q152 -177 152 -429t-152 -429q-72 -84 -170 -133q-102 -50 -211 -50q-110 0 -212 50q-96 48 -169 133q-153 178 -153 429zM242 593q0 -195 115 -332t275 -137t275 137t115 332t-115 332 t-275 137t-275 -137t-115 -332z" />
<glyph unicode="p" horiz-adv-x="1185" d="M127 -430v1646h291q121 0 231 -45.5t195 -130.5q86 -86 131.5 -195.5t45.5 -230.5t-46 -231.5t-131 -195.5t-195 -130.5t-231 -45.5h-83q-41 0 -54 -15q-11 -11 -11 -32v-394h-143zM270 147q29 7 65 7h83q124 0 230 62t167.5 168t61.5 230t-61.5 230t-167.5 167.5 t-230 61.5h-148v-926z" />
<glyph unicode="q" horiz-adv-x="1179" d="M98 614q0 121 45.5 230.5t131.5 195.5q85 85 195 130.5t231 45.5h291v-1646h-143v394q0 21 -11 32q-13 15 -54 15h-83q-121 0 -231 45.5t-195 130.5t-131 195.5t-46 231.5zM242 614q0 -124 61.5 -230t167.5 -168t230 -62h83q35 0 65 -7v926h-148q-124 0 -230 -61.5 t-167.5 -167.5t-61.5 -230z" />
<glyph unicode="r" horiz-adv-x="698" d="M119 -20v754q0 193 128 332q131 140 315 140h20v-143h-20q-123 0 -211.5 -96t-88.5 -233v-754h-143z" />
<glyph unicode="s" horiz-adv-x="1099" d="M76 204l113 87l44 -57q28 -36 53 -56.5t87 -37.5t156 -17q134 0 207.5 58t73.5 158q0 42 -17 71t-57 53q-53 33 -219 75q-60 15 -93.5 24.5t-82 28.5t-83.5 40q-145 88 -145 250q0 145 103 233q108 92 313 92q98 0 186 -44t149 -124l44 -57l-114 -87l-44 56 q-86 112 -221 112q-140 0 -206 -45t-66 -136q0 -84 75 -128q56 -34 221 -76q64 -17 93.5 -25t79 -26.5t84.5 -39.5q143 -85 143 -247q0 -157 -112 -257q-114 -102 -312 -102q-164 0 -261 44q-84 38 -149 123z" />
<glyph unicode="t" horiz-adv-x="714" d="M123 453v1173h144v-449q29 7 64 7h256v-143h-256q-40 0 -54 -16q-10 -10 -10 -29v-543q0 -137 88 -233.5t211 -96.5h21v-143h-21q-184 0 -315 140q-128 137 -128 333z" />
<glyph unicode="u" horiz-adv-x="1179" d="M117 452v754h143v-754q0 -137 88 -233t211 -96t211 96t88 233v754h143v-754q0 -194 -127 -332q-62 -67 -144 -103.5t-171 -36.5t-171 36.5t-144 103.5q-127 138 -127 332z" />
<glyph unicode="v" horiz-adv-x="1224" d="M61 1206h152l367 -983l366 983h153l-457 -1226h-124z" />
<glyph unicode="w" horiz-adv-x="1884" d="M61 1206h152l361 -966l256 826h128l256 -826l359 966h154l-457 -1226h-126l-250 808l-251 -808h-125z" />
<glyph unicode="x" horiz-adv-x="1236" d="M58 -20l444 613l-444 613h173l357 -494l357 494h173l-444 -613l445 -613h-174l-357 494l-357 -494h-173z" />
<glyph unicode="y" horiz-adv-x="1232" d="M61 1206h149l364 -976q5 -16 9 -29l375 1005h150l-502 -1341q-47 -132 -151 -211q-110 -84 -247 -84h-70v139h70q88 0 161.5 55.5t105.5 148.5l6 17q6 18 6 45q0 42 -14 104q-6 25 -13.5 51t-11.5 39l-5 13z" />
<glyph unicode="z" horiz-adv-x="1206" d="M82 -21v112l770 971h-730v144h940v-111l-771 -972h731v-144h-940z" />
<glyph unicode="{" horiz-adv-x="878" d="M78 597v158h107q53 3 84.5 17.5t55.5 57t34.5 119t13.5 203.5q1 80 3 118t10.5 96.5t25.5 99.5q66 163 269 160l79 -1v-159l-82 1q-59 1 -82 -14t-36 -47q-24 -59 -28 -257q-3 -152 -19.5 -246.5t-52.5 -156.5q-21 -38 -55 -70q34 -33 55 -70q36 -62 52.5 -156.5 t19.5 -246.5q4 -198 28 -257q9 -21 17.5 -32.5t34 -21t66.5 -8.5l82 1v-158l-79 -2h-9q-195 0 -260 161q-17 41 -25.5 99.5t-10.5 96.5t-3 118q-3 127 -13.5 203t-34.5 118.5t-55 57t-85 17.5z" />
<glyph unicode="|" horiz-adv-x="430" d="M133 -299v1925h143v-1925h-143z" />
<glyph unicode="}" horiz-adv-x="880" d="M80 -115l82 -1q59 -1 82 14.5t36 47.5q24 59 28 257q3 152 19.5 246.5t52.5 156.5q21 38 55 70q-34 33 -55 70q-36 62 -52.5 156.5t-19.5 246.5q-4 198 -28 257q-9 21 -18 32.5t-34 20.5t-66 8l-82 -1v159l79 1q202 3 268 -160q17 -41 26 -98.5t11 -98.5t3 -117 q3 -168 23.5 -252.5t56.5 -112.5t108 -32h86h21v-158l-108 -1q-71 -4 -107 -32t-56.5 -112.5t-23.5 -251.5q-1 -76 -3 -117t-11 -98.5t-26 -98.5q-65 -161 -260 -161h-8l-79 2v158z" />
<glyph unicode="~" horiz-adv-x="1206" d="M92 604l30 65q83 177 198 204q76 18 160 -28q41 -22 121 -85q62 -49 103.5 -73t70.5 -17q62 14 131 162l30 65l130 -61l-30 -65q-50 -105 -103 -163q-57 -62 -125 -78q-20 -5 -47 -5q-45 0 -95.5 22.5t-75.5 41t-78 59.5q-119 96 -159 86q-46 -11 -101 -126l-31 -65z" />
<glyph unicode="&#xa1;" horiz-adv-x="440" d="M96 1505q0 51 32.5 86t82.5 35q52 0 84.5 -35t32.5 -86q0 -52 -32.5 -87t-82.5 -35q-51 0 -84 35t-33 87zM140 -20v1005h144v-1005h-144z" />
<glyph unicode="&#xa2;" horiz-adv-x="1093" d="M68 594q0 251 146 428q71 86 164 134q66 34 140 45v112h143v-113q180 -30 279 -162l43 -57l-115 -86l-43 58q-39 51 -102.5 80.5t-138.5 29.5q-100 0 -185.5 -62t-136.5 -170.5t-51 -236.5q0 -197 110 -334t263 -137q75 0 139.5 29.5t102.5 80.5l42 57l115 -85l-43 -58 q-99 -132 -279 -161v-113h-143v111q-69 10 -140 46q-93 48 -164 134q-146 178 -146 430z" />
<glyph unicode="&#xa3;" horiz-adv-x="1300" d="M80 -20v142h20q39 0 63 16t47 70q57 136 66 471h-161v143l162 1q1 222 33 380t96 252q62 90 160 129q74 30 182 30q124 0 228 -98q94 -90 155 -237l8 -19l-133 -55l-8 19q-49 118 -116 182.5t-134 64.5q-85 0 -135.5 -22.5t-87.5 -75.5q-102 -148 -105 -550l455 1l1 -144 h-457q-9 -369 -77 -528q-4 -10 -13 -28l829 1v-145h-1078z" />
<glyph unicode="&#xa4;" horiz-adv-x="1267" d="M86 1155l101 101l144 -144q121 107 275 107q153 0 275 -106l143 143l102 -101l-153 -153q69 -116 69 -256q0 -139 -67 -254l151 -151l-102 -101l-140 141q-120 -108 -278 -108q-156 0 -277 108l-141 -141l-101 101l151 151q-68 116 -68 254t69 255zM314 746 q0 -137 86 -233.5t206 -96.5t206.5 96.5t86.5 233.5t-86.5 233t-206.5 96t-206 -96t-86 -233z" />
<glyph unicode="&#xa5;" horiz-adv-x="1501" d="M61 1551l15 11l2 1l97 72l541 -728l540 728l114 -84l-554 -747q-6 -14 -11 -34h324v-141h-342v-83h342v-142h-342v-425h-142v425h-346v142h346v83h-346v141h328q-4 16 -11 34z" />
<glyph unicode="&#xa7;" horiz-adv-x="1077" d="M70 200l117 82l41 -59q18 -25 32.5 -39.5t41 -30t68.5 -22.5t101 -7q111 0 170.5 52t59.5 146q0 52 -25.5 82.5t-81.5 55.5q-37 7 -178 55t-185 77q-125 84 -125 237q0 138 88 220q41 37 92 58q-80 79 -80 200q0 138 88 220q96 89 277 89q88 0 166 -42.5t131 -119.5 l41 -59l-118 -82l-41 59q-70 100 -179 100q-126 0 -179 -50q-43 -40 -43 -115q0 -33 10.5 -57.5t28 -42t51.5 -33.5t67 -27t90 -27q154 -42 223 -87q125 -82 125 -233q0 -148 -97 -242q-34 -33 -70 -52q67 -76 67 -184q0 -148 -97 -242q-102 -99 -276 -99 q-142 0 -223.5 40.5t-136.5 119.5zM249 829q0 -33 10.5 -57.5t28 -42t51.5 -33.5t67 -27t90 -27q81 -22 122 -37q89 11 136 61.5t47 133.5q0 32 -10.5 56t-27 41t-50.5 32.5t-66.5 26t-89.5 26.5q-13 4 -44 13h-42q-125 0 -179 -51q-43 -40 -43 -115z" />
<glyph unicode="&#xab;" horiz-adv-x="903" d="M71 593l410 406v-203l-206 -202l205 -202l1 -204zM390 592l410 407l1 -202l-206 -203l207 -204l-2 -201z" />
<glyph unicode="&#xad;" horiz-adv-x="872" d="M115 535v143h604v-143h-604z" />
<glyph unicode="&#xb5;" horiz-adv-x="1181" d="M133 -20v1646h143v-1072q22 5 54 5h246q123 0 210.5 96t87.5 233v738h144v-738q0 -193 -128 -332q-62 -67 -144 -103.5t-171 -36.5h-251q-21 0 -32 -11q-16 -16 -16 -54v-371h-143z" />
<glyph unicode="&#xb6;" horiz-adv-x="1384" d="M82 1199q0 175 125 300t300 125l682 2v-1646h-144v753q-2 18 -10 26q-7 9 -25 12v-791h-143v794h-361q-175 0 -299.5 124.5t-124.5 300.5zM225 1199q0 -116 83 -198.5t199 -82.5h360v564l-360 -2q-116 0 -199 -82.5t-83 -198.5zM1010 916q12 -1 35 -6v572h-35v-566z" />
<glyph unicode="&#xbb;" horiz-adv-x="911" d="M111 390l206 204l-206 203l1 202l410 -407l-410 -403zM431 188l1 204l205 202l-205 202v203l409 -406z" />
<glyph unicode="&#xbf;" horiz-adv-x="1105" d="M90 385q0 207 97 325q27 32 64 60.5t61 41.5t65 34q78 39 102.5 63.5t24.5 77.5v71h140v-71q0 -40 -8 -73.5t-25.5 -59.5t-34 -45t-44.5 -37t-44.5 -27.5t-47.5 -24.5t-42 -21t-37 -21.5t-37 -26.5t-30 -31t-27 -41t-18.5 -50t-14 -65t-3.5 -79q0 -133 82.5 -199 t255.5 -66q79 0 150.5 40.5t122.5 114.5l40 58l116 -80l-40 -58q-71 -102 -172.5 -158.5t-216.5 -56.5q-242 0 -366 117q-113 105 -113 288zM448 1508q0 50 31.5 84t82.5 34q49 0 80.5 -34t31.5 -84q0 -51 -32.5 -85t-81.5 -34t-80.5 34t-31.5 85z" />
<glyph unicode="&#xc0;" horiz-adv-x="1470" d="M61 -20l575 1646h125l574 -1646h-151l-213 611q-57 -20 -134 -20h-303q-72 0 -116 -41q-25 -24 -25 -33l-181 -517h-151zM462 1860l88 114l369 -283l-87 -114zM466 707q34 6 68 6h303q56 0 87 12l-226 648z" />
<glyph unicode="&#xc1;" horiz-adv-x="1470" d="M61 -20l575 1646h125l574 -1646h-151l-213 611q-57 -20 -134 -20h-303q-72 0 -116 -41q-25 -24 -25 -33l-181 -517h-151zM413 1691l370 283l87 -114l-370 -283zM466 707q34 6 68 6h303q56 0 87 12l-226 648z" />
<glyph unicode="&#xc2;" horiz-adv-x="1470" d="M61 -20l575 1646h125l574 -1646h-151l-213 611q-57 -20 -134 -20h-303q-72 0 -116 -41q-25 -24 -25 -33l-181 -517h-151zM284 1694l430 300l396 -303l-88 -114l-312 239l-345 -240l-10 15l-1 2zM466 707q34 6 68 6h303q56 0 87 12l-226 648z" />
<glyph unicode="&#xc3;" horiz-adv-x="1470" d="M61 -20l575 1646h125l574 -1646h-151l-213 611q-57 -20 -134 -20h-303q-72 0 -116 -41q-25 -24 -25 -33l-181 -517h-151zM400 1708l30 65q50 107 127 126q34 8 70.5 -3.5t55 -24t50.5 -38.5q49 -39 63 -41q20 13 45 66l31 65l130 -61l-31 -65q-59 -126 -142 -145 q-11 -3 -33 -3q-30 0 -61.5 13.5t-47 24.5t-43.5 33q-44 34 -54 38q-15 -15 -30 -47l-30 -64zM466 707q34 6 68 6h303q56 0 87 12l-226 648z" />
<glyph unicode="&#xc4;" horiz-adv-x="1472" d="M61 -20l575 1646h125l574 -1646h-151l-213 611q-57 -20 -134 -20h-303q-72 0 -116 -41q-25 -24 -25 -33l-181 -517h-151zM442 1710v28q0 30 21 51t51 21t51 -21t21 -51v-28q0 -30 -21 -51t-51 -21t-51 21t-21 51zM466 707q34 6 68 6h303q56 0 87 12l-226 648zM811 1710 v28q0 30 21 51t51 21t50.5 -21t20.5 -51v-28q0 -30 -20.5 -51t-50.5 -21t-51 21t-21 51z" />
<glyph unicode="&#xc5;" horiz-adv-x="1470" d="M61 -20l560 1603v11q-52 22 -84.5 70.5t-32.5 107.5q0 80 56 136t136 56t136.5 -56.5t56.5 -135.5q0 -59 -32.5 -107t-84.5 -71l563 -1614h-151l-213 611q-57 -20 -134 -20h-303q-72 0 -116 -41q-25 -24 -25 -33l-181 -517h-151zM466 707q34 6 68 6h303q56 0 87 12 l-226 648zM647 1772q0 -20 14.5 -35t34.5 -15t35 15t15 35t-15 34.5t-35 14.5t-34.5 -14.5t-14.5 -34.5z" />
<glyph unicode="&#xc6;" horiz-adv-x="1851" d="M61 -19l575 1645h1014l1 -143l-854 -1v-571q29 7 64 7h790v-143h-790q-41 0 -54 -15q-10 -10 -10 -30v-607l853 1l1 -143l-997 -1v589q-41 -9 -97 -9h-25q-31 0 -56.5 -7.5t-40.5 -17t-26 -22t-14.5 -18.5t-5.5 -10l-176 -504h-152zM463 697q34 6 69 6h25q61 0 97 18v522 z" />
<glyph unicode="&#xc7;" horiz-adv-x="1499" d="M102 803q0 163 49.5 312t142.5 265q89 113 214 179q127 68 268 68q164 0 309 -91q138 -87 230 -237l38 -62l-123 -76l-38 62q-76 124 -185 191.5t-231 67.5q-142 0 -263.5 -90t-193.5 -246.5t-72 -342.5t72 -343t193.5 -247t263.5 -90q122 0 231 67.5t185 191.5l38 62 l123 -75l-10 -16l-1 -2l-27 -44q-92 -150 -230 -237q-115 -72 -243 -87v-14q39 -19 66 -53q49 -61 49 -147t-49 -147q-55 -69 -139 -69q-46 0 -86.5 24t-66.5 66l-37 62l123 75l37 -61q14 -22 30 -22q15 0 29.5 20.5t14.5 51.5t-14.5 51.5t-29.5 20.5h-72l1 124v19 q-97 13 -190 62q-123 65 -214 180q-93 116 -142.5 265t-49.5 312z" />
<glyph unicode="&#xc8;" horiz-adv-x="1300" d="M129 -22v1647h620l-350 268l12 15l75 99l370 -283l-75 -99l345 1v-144h-854v-572q29 7 65 7h789v-143h-789q-40 0 -54 -16q-11 -11 -11 -29v-607l854 1v-143z" />
<glyph unicode="&#xc9;" horiz-adv-x="1300" d="M129 -22v1647h345l-75 99l370 283l87 -114l-349 -268l619 1v-144h-854v-572q29 7 65 7h789v-143h-789q-40 0 -54 -16q-11 -11 -11 -29v-607l854 1v-143z" />
<glyph unicode="&#xca;" horiz-adv-x="1300" d="M129 -22v1647h157l-71 103l15 10l2 1l414 289l395 -303l-76 -99h161v-144h-854v-572q29 7 65 7h789v-143h-789q-40 0 -54 -16q-11 -11 -11 -29v-607l854 1v-143zM319 1625h616l-293 225z" />
<glyph unicode="&#xcb;" horiz-adv-x="1300" d="M129 -22v1647l997 1v-144h-854v-572q29 7 65 7h789v-143h-789q-40 0 -54 -16q-11 -11 -11 -29v-607l854 1v-143zM377 1710v28q0 30 21 51t51 21t50.5 -21t20.5 -51v-28q0 -30 -20.5 -51t-50.5 -21t-51 21t-21 51zM745 1710v28q0 30 21 51t51 21t51 -21t21 -51v-28 q0 -30 -21 -51t-51 -21t-51 21t-21 51z" />
<glyph unicode="&#xcc;" horiz-adv-x="587" d="M0 0l407 1622l-354 271l87 114l370 -283l-87 -114l64 282q8 42 -10 -21q-67 -235 -477 -1871zM159 -20v1646h143v-1646h-143z" />
<glyph unicode="&#xcd;" horiz-adv-x="581" d="M0 0l124 1626l-75 98l370 283l87 -114l-370 -283l17 297q0 13 -3 -11q-18 -160 -150 -1896zM206 -20v1646h143v-1646h-143z" />
<glyph unicode="&#xce;" horiz-adv-x="970" d="M49 1728l431 300l395 -303l-87 -114l-312 239l-345 -240zM391 -20v1646h143v-1646h-143z" />
<glyph unicode="&#xcf;" horiz-adv-x="659" d="M57 1710v28q0 30 21 51t51 21t51 -21t21 -51v-28q0 -30 -21 -51t-51 -21t-51 21t-21 51zM241 -20v1646h143v-1646h-143zM426 1710v28q0 30 21 51t51 21t50.5 -21t20.5 -51v-28q0 -30 -20.5 -51t-50.5 -21t-51 21t-21 51z" />
<glyph unicode="&#xd1;" horiz-adv-x="1363" d="M129 -20v1646h125l772 -1339v1339h140v-1646h-124l-773 1339v-1339h-140zM347 1677l30 65q50 107 127 126q34 8 70.5 -3.5t55 -24t50.5 -38.5q49 -39 63 -41q20 13 45 66l31 65l130 -60l-31 -65q-59 -126 -142 -145q-15 -4 -33 -4q-29 0 -61 14t-46.5 24.5t-44.5 33.5 q-42 33 -54 37q-16 -16 -30 -46l-30 -65z" />
<glyph unicode="&#xd2;" d="M102 803q0 163 49.5 311.5t142.5 264.5q90 114 213 180q125 67 267 67t267 -67q123 -66 213 -180q93 -116 142.5 -264.5t49.5 -311.5t-49.5 -311.5t-142.5 -264.5q-90 -114 -213 -180q-127 -68 -267 -68t-267 68q-123 66 -213 180q-93 116 -142.5 264.5t-49.5 311.5z M246 803q0 -139 42.5 -265.5t113.5 -217t168.5 -144t203.5 -53.5t203.5 53.5t168.5 144t113.5 217t42.5 265.5t-42.5 265.5t-113.5 216.5t-168.5 143.5t-203.5 53.5t-203.5 -53.5t-168.5 -143.5t-113.5 -216.5t-42.5 -265.5zM545 1893l88 114l369 -283l-87 -114z" />
<glyph unicode="&#xd3;" d="M102 803q0 163 49.5 311.5t142.5 264.5q90 114 213 180q125 67 267 67t267 -67q123 -66 213 -180q93 -116 142.5 -264.5t49.5 -311.5t-49.5 -311.5t-142.5 -264.5q-90 -114 -213 -180q-127 -68 -267 -68t-267 68q-123 66 -213 180q-93 116 -142.5 264.5t-49.5 311.5z M246 803q0 -139 42.5 -265.5t113.5 -217t168.5 -144t203.5 -53.5t203.5 53.5t168.5 144t113.5 217t42.5 265.5t-42.5 265.5t-113.5 216.5t-168.5 143.5t-203.5 53.5t-203.5 -53.5t-168.5 -143.5t-113.5 -216.5t-42.5 -265.5zM545 1724l370 283l87 -114l-369 -283z" />
<glyph unicode="&#xd4;" d="M102 803q0 163 49.5 311.5t142.5 264.5q90 114 213 180q125 67 267 67t267 -67q123 -66 213 -180q93 -116 142.5 -264.5t49.5 -311.5t-49.5 -311.5t-142.5 -264.5q-90 -114 -213 -180q-127 -68 -267 -68t-267 68q-123 66 -213 180q-93 116 -142.5 264.5t-49.5 311.5z M246 803q0 -139 42.5 -265.5t113.5 -217t168.5 -144t203.5 -53.5t203.5 53.5t168.5 144t113.5 217t42.5 265.5t-42.5 265.5t-113.5 216.5t-168.5 143.5t-203.5 53.5t-203.5 -53.5t-168.5 -143.5t-113.5 -216.5t-42.5 -265.5zM361 1728l15 10l2 1l414 289l395 -303l-87 -114 l-312 239l-345 -240z" />
<glyph unicode="&#xd5;" d="M102 803q0 163 49.5 311.5t142.5 264.5q90 114 213 180q125 67 267 67q28 0 56 -3q-39 10 -113 67q-42 33 -54 37q-16 -16 -30 -46l-30 -65l-130 61l31 65q50 108 126 126q34 8 70.5 -3.5t55.5 -24.5t51 -38q49 -39 62 -41q21 14 46 66l30 65l130 -60l-31 -65 q-59 -126 -142 -145q-15 -4 -33 -4q89 -15 172 -59q123 -66 213 -180q93 -116 142.5 -264.5t49.5 -311.5t-49.5 -311.5t-142.5 -264.5q-90 -114 -213 -180q-127 -68 -267 -68t-267 68q-123 66 -213 180q-93 116 -142.5 264.5t-49.5 311.5zM246 803q0 -139 42.5 -265.5 t113.5 -217t168.5 -144t203.5 -53.5t203.5 53.5t168.5 144t113.5 217t42.5 265.5t-42.5 265.5t-113.5 216.5t-168.5 143.5t-203.5 53.5t-203.5 -53.5t-168.5 -143.5t-113.5 -216.5t-42.5 -265.5z" />
<glyph unicode="&#xd6;" d="M102 803q0 163 49.5 311.5t142.5 264.5q90 114 213 180q125 67 267 67t267 -67q123 -66 213 -180q93 -116 142.5 -264.5t49.5 -311.5t-49.5 -311.5t-142.5 -264.5q-90 -114 -213 -180q-127 -68 -267 -68t-267 68q-123 66 -213 180q-93 116 -142.5 264.5t-49.5 311.5z M246 803q0 -139 42.5 -265.5t113.5 -217t168.5 -144t203.5 -53.5t203.5 53.5t168.5 144t113.5 217t42.5 265.5t-42.5 265.5t-113.5 216.5t-168.5 143.5t-203.5 53.5t-203.5 -53.5t-168.5 -143.5t-113.5 -216.5t-42.5 -265.5zM518 1710v28q0 30 21 51t51 21t50.5 -21 t20.5 -51v-28q0 -30 -20.5 -51t-50.5 -21t-51 21t-21 51zM887 1710v28q0 30 20.5 51t50.5 21t51 -21t21 -51v-28q0 -30 -21 -51t-51 -21t-50.5 21t-20.5 51z" />
<glyph unicode="&#xd7;" horiz-adv-x="350" />
<glyph unicode="&#xd8;" horiz-adv-x="1642" d="M76 -20l205 274q-171 234 -171 549q0 163 49.5 311.5t142.5 264.5q90 114 213 180q127 68 267 68t267 -68q68 -35 133 -94l120 161h179l-201 -270q84 -114 129 -256.5t45 -296.5q0 -163 -49.5 -311.5t-142.5 -264.5q-90 -114 -213 -180q-125 -67 -267 -67t-267 67 q-75 40 -137 97l-123 -164h-179zM254 803q0 -240 118 -427l724 973q-140 134 -314 134q-106 0 -203.5 -53.5t-168.5 -144t-113.5 -217t-42.5 -265.5zM465 260q142 -137 317 -137q106 0 203.5 53.5t168.5 144t113.5 217t42.5 265.5q0 242 -120 431z" />
<glyph unicode="&#xd9;" horiz-adv-x="1366" d="M123 507v1119h143v-1119q0 -158 112.5 -270.5t270.5 -112.5t270.5 112.5t112.5 270.5v1119h144v-1119q0 -105 -40.5 -201.5t-114.5 -170.5q-154 -154 -372 -154q-105 0 -201.5 40t-170.5 114t-114 170.5t-40 201.5zM421 1893l87 114l370 -283l-87 -114z" />
<glyph unicode="&#xda;" horiz-adv-x="1366" d="M123 507v1119h143v-1119q0 -158 112.5 -270.5t270.5 -112.5t270.5 112.5t112.5 270.5v1119h144v-1119q0 -105 -40 -201t-115 -171q-74 -74 -170.5 -114t-201.5 -40t-201.5 40t-170.5 114t-114 170.5t-40 201.5zM421 1724l370 283l87 -114l-370 -283z" />
<glyph unicode="&#xdb;" horiz-adv-x="1366" d="M123 507v1119h143v-1119q0 -158 112.5 -270.5t270.5 -112.5t270.5 112.5t112.5 270.5v1119h144v-1119q0 -105 -40 -201t-115 -171q-154 -154 -372 -154q-105 0 -201.5 40t-170.5 114t-114 170.5t-40 201.5zM236 1728l431 300l395 -303l-87 -114l-312 239l-345 -240z" />
<glyph unicode="&#xdc;" horiz-adv-x="1366" d="M123 507v1119h143v-1119q0 -158 112.5 -270.5t270.5 -112.5t270.5 112.5t112.5 270.5v1119h144v-1119q0 -105 -40.5 -201.5t-114.5 -170.5q-154 -154 -372 -154q-105 0 -201.5 40t-170.5 114t-114 170.5t-40 201.5zM393 1710v28q0 30 21 51t51 21t51 -21t21 -51v-28 q0 -30 -21 -51t-51 -21t-51 21t-21 51zM762 1710v28q0 30 21 51t51 21t50.5 -21t20.5 -51v-28q0 -30 -20.5 -51t-50.5 -21t-51 21t-21 51z" />
<glyph unicode="&#xdf;" horiz-adv-x="1277" d="M125 1199q0 180 111 299q118 126 314 126q194 0 310 -127q107 -118 107 -298q0 -162 -103 -249q-60 -50 -181 -84q-19 -5 -33 -10q19 -3 47 -6q54 -7 86 -12.5t84.5 -22.5t91.5 -42q155 -98 155 -325q0 -97 -40 -184q-37 -82 -105 -148q-67 -65 -151 -100.5t-172 -35.5 q-64 0 -120 11.5t-89.5 26t-60.5 34t-36.5 30t-15.5 19.5l-12 17l118 80l11 -14q16 -16 39 -28q66 -33 166 -33q127 0 226 99t99 226q0 63 -15.5 108t-32.5 63t-41 33q-57 37 -203 55q-85 11 -119 24q-50 18 -69.5 50.5t-19.5 64.5q0 77 70 119q35 20 102 39q30 9 42.5 12.5 t37 13t35 18t26.5 23t22.5 31.5t12 42t5.5 55q0 55 -14.5 103t-45.5 89t-86 65t-128 24q-130 0 -206 -75.5t-76 -205.5l2 -1220h-144z" />
<glyph unicode="&#xe0;" horiz-adv-x="1144" d="M84 347q0 157 136 265q128 102 308 102h249h3q22 0 33 11q14 14 15 47v67q0 91 -82 157t-200 66q-76 0 -141 -29.5t-103 -80.5l-43 -58l-115 86l43 58q59 79 154.5 123.5t204.5 44.5q173 0 296 -103q130 -108 130 -264v-9v-51v-9v-423q0 -156 -137 -265 q-128 -102 -307 -102q-180 0 -308 102q-136 108 -136 265zM228 347q0 -89 81 -153q90 -71 219 -71q128 0 218 71q82 65 82 153v229q-22 -5 -54 -5l-246 -1q-130 0 -219 -70q-81 -64 -81 -153zM299 1521l88 113l369 -283l-87 -114z" />
<glyph unicode="&#xe1;" horiz-adv-x="1144" d="M84 347q0 157 136 265q128 102 308 102h249h3q22 0 33 11q14 14 15 47v67q0 91 -82 157t-200 66q-76 0 -141 -29.5t-103 -80.5l-43 -58l-115 86l43 58q59 79 154.5 123.5t204.5 44.5q173 0 296 -103q130 -108 130 -264v-9v-51v-9v-423q0 -156 -137 -265 q-128 -102 -307 -102q-180 0 -308 102q-136 108 -136 265zM228 347q0 -89 81 -153q90 -71 219 -71q128 0 218 71q82 65 82 153v229q-22 -5 -54 -5l-246 -1q-130 0 -219 -70q-81 -64 -81 -153zM299 1351l370 283l87 -113l-370 -284z" />
<glyph unicode="&#xe2;" horiz-adv-x="1165" d="M96 347q0 157 136 265q128 102 308 102h249h3q22 0 33 11q14 14 15 47v67q0 91 -82 157t-200 66q-76 0 -141 -29.5t-103 -80.5l-42 -58l-116 86l43 58q59 79 154.5 123.5t204.5 44.5q173 0 296 -103q130 -108 130 -264v-9v-51v-9v-423q0 -157 -136 -265 q-128 -102 -308 -102t-308 102q-136 108 -136 265zM240 347q0 -88 82 -153q90 -71 218 -71t218 71q82 65 82 153v229q-22 -5 -54 -5l-246 -1q-129 0 -218 -70q-82 -65 -82 -153zM266 1430l314 218l10 -7l2 -1l303 -210l-82 -117l-233 156l-233 -156z" />
<glyph unicode="&#xe3;" horiz-adv-x="1144" d="M84 347q0 157 136 265q128 102 308 102h249h3q22 0 33 11q14 14 15 47v67q0 91 -82 157t-200 66q-76 0 -141 -29.5t-103 -80.5l-43 -58l-115 86l43 58q59 79 154.5 123.5t204.5 44.5q173 0 296 -103q130 -108 130 -264v-9v-51v-9v-423q0 -156 -137 -265 q-128 -102 -307 -102q-180 0 -308 102q-136 108 -136 265zM228 347q0 -89 81 -153q90 -71 219 -71q128 0 218 71q82 65 82 153v229q-22 -5 -54 -5l-246 -1q-130 0 -219 -70q-81 -64 -81 -153zM240 1423l30 65q50 107 127 126q34 8 70.5 -3.5t55 -24t50.5 -38.5 q49 -39 63 -41q20 13 45 66l31 65l129 -61l-30 -65q-59 -125 -143 -145q-11 -3 -32 -3q-30 0 -61.5 13.5t-47 24.5t-43.5 33q-44 34 -54 38q-17 -17 -30 -45l-30 -66z" />
<glyph unicode="&#xe4;" horiz-adv-x="1144" d="M84 347q0 157 136 265q128 102 308 102h249h3q22 0 33 11q14 14 15 47v67q0 91 -82 157t-200 66q-76 0 -141 -29.5t-103 -80.5l-43 -58l-115 86l43 58q59 79 154.5 123.5t204.5 44.5q173 0 296 -103q130 -108 130 -264v-9v-51v-9v-423q0 -156 -137 -265 q-128 -102 -307 -102q-180 0 -308 102q-136 108 -136 265zM228 347q0 -89 81 -153q90 -71 219 -71q128 0 218 71q82 65 82 153v229q-22 -5 -54 -5l-246 -1q-130 0 -219 -70q-81 -64 -81 -153zM297 1431v28q0 30 20.5 51t50.5 21t51 -21t21 -51v-28q0 -30 -21 -51t-51 -21 t-50.5 21t-20.5 51zM665 1431v28q0 30 21 51t51 21t51 -21t21 -51v-28q0 -30 -21 -51t-51 -21t-51 21t-21 51z" />
<glyph unicode="&#xe5;" horiz-adv-x="1144" d="M84 347q0 157 136 265q128 102 308 102h249h3q22 0 33 11q14 14 15 47v67q0 91 -82 157t-200 66q-76 0 -141 -29.5t-103 -80.5l-43 -58l-115 86l43 58q59 79 154.5 123.5t204.5 44.5q173 0 296 -103q130 -108 130 -264v-9v-51v-9v-423q0 -156 -137 -265 q-128 -102 -307 -102q-180 0 -308 102q-136 108 -136 265zM228 347q0 -89 81 -153q90 -71 219 -71q128 0 218 71q82 65 82 153v229q-22 -5 -54 -5l-246 -1q-130 0 -219 -70q-81 -64 -81 -153zM362 1427q0 79 57 136t136 57t135.5 -56.5t56.5 -136.5q0 -79 -56.5 -135.5 t-135.5 -56.5q-80 0 -136.5 56.5t-56.5 135.5zM505 1427q0 -20 15 -34.5t35 -14.5t34.5 14.5t14.5 34.5t-14.5 34.5t-34.5 14.5t-35 -14.5t-15 -34.5z" />
<glyph unicode="&#xe6;" horiz-adv-x="1929" d="M86 347q0 157 136 265q128 102 308 102q192 0 234 3q41 3 51 8q14 14 15 47v67q0 91 -82 157t-200 66q-76 0 -141 -29.5t-103 -80.5l-43 -58l-115 86l43 58q59 79 154.5 123.5t204.5 44.5q173 0 296 -103q63 -52 97 -121q14 21 30 40q71 86 164 134q98 50 205 50 q175 0 284 -89q107 -88 107 -219q0 -66 -31 -126.5t-87 -104.5q-122 -95 -322 -95h-284q-11 0 -19 -7q-9 -9 -13 -23t-3 -23l1 -9v-1q24 -166 128 -275.5t239 -109.5q179 0 262 111l43 57l115 -86l-43 -57q-127 -168 -377 -168q-106 0 -202 48t-169 137q-20 26 -29 39 q-36 -70 -102 -123q-128 -102 -308 -102t-308 102q-136 108 -136 265zM230 347q0 -88 82 -153q90 -71 218 -71t218 71q82 65 82 153q-4 164 -5 228q-18 -4 -49 -4l-246 -1q-129 0 -218 -70q-82 -65 -82 -153zM980 713q13 2 34 2h277q151 0 233 65q64 50 64 118 q0 64 -62.5 114.5t-185.5 50.5q-127 0 -227 -98.5t-133 -251.5z" />
<glyph unicode="&#xe7;" horiz-adv-x="1146" d="M98 592q0 251 147 430q71 86 164 134q98 50 206 50q109 0 203 -44.5t153 -123.5l43 -57l-115 -86l-43 58q-38 51 -102.5 80.5t-139.5 29.5q-153 0 -262.5 -137t-109.5 -334q0 -128 50.5 -236.5t136 -170.5t185.5 -62q75 0 139.5 30t103.5 81l42 56l115 -85l-43 -58 q-50 -68 -129 -110.5t-170 -53.5v-13q39 -19 65 -52q50 -63 50 -146t-50 -146q-56 -69 -137 -69q-45 0 -85 24t-66 66l-38 61l122 75l38 -61q14 -22 29 -22q14 0 28.5 20.5t14.5 51.5t-14.5 51t-28.5 20h-71v145q-63 13 -120 42q-93 48 -164 134q-147 178 -147 428z" />
<glyph unicode="&#xe8;" horiz-adv-x="1165" d="M96 594q0 250 147 428q71 86 164 134q98 50 205 50q176 0 285 -89q107 -88 107 -219q0 -66 -31.5 -126.5t-87.5 -104.5q-122 -95 -321 -95h-285q-12 0 -18 -6q-4 -5 -7.5 -10.5t-5.5 -10.5t-3 -9.5t-1 -9v-7.5v-5l1 -3v-1h1q24 -167 128 -276.5t239 -109.5q178 0 261 111 l43 57l115 -86l-43 -57q-127 -168 -376 -168q-106 0 -202 48t-169 137q-100 123 -132 286l-7 44q-7 58 -7 98zM252 713q13 2 34 2h278q150 0 232 65q64 50 64 118q0 64 -62.5 114.5t-185.5 50.5q-127 0 -227 -98.5t-133 -251.5zM332 1521l87 113l370 -283l-88 -114z" />
<glyph unicode="&#xe9;" horiz-adv-x="1165" d="M96 594q0 250 147 428q71 86 164 134q98 50 205 50q176 0 285 -89q107 -88 107 -219q0 -66 -31.5 -126.5t-87.5 -104.5q-122 -95 -321 -95h-285q-12 0 -18 -6q-4 -5 -7.5 -10.5t-5.5 -10.5t-3 -9.5t-1 -9v-7.5v-5l1 -3v-1h1q24 -167 128 -276.5t239 -109.5q178 0 261 111 l43 57l115 -86l-43 -57q-127 -168 -376 -168q-106 0 -202 48t-169 137q-100 123 -132 286l-7 44q-7 58 -7 98zM252 713q13 2 34 2h278q150 0 232 65q64 50 64 118q0 64 -62.5 114.5t-185.5 50.5q-127 0 -227 -98.5t-133 -251.5zM332 1351l369 283l88 -113l-370 -284z" />
<glyph unicode="&#xea;" horiz-adv-x="1167" d="M109 594q0 251 146 428q71 86 164 134q98 50 205 50q176 0 285 -89q107 -88 107 -219q0 -66 -31.5 -126.5t-87.5 -104.5q-122 -95 -321 -95h-285q-12 0 -18 -6q-4 -5 -7.5 -10.5t-5 -10.5t-2.5 -9.5t-1 -9v-7.5t1 -5v-3v-1q24 -167 128 -276.5t239 -109.5q179 0 262 111 l42 57l115 -86l-43 -57q-127 -168 -376 -168q-106 0 -202 48t-169 137q-100 123 -132 286l-7 44q-6 50 -6 98zM264 713q13 2 34 2h278q151 0 233 65q64 50 64 118q0 64 -62.5 114.5t-185.5 50.5q-127 0 -227.5 -98.5t-133.5 -251.5zM307 1432l314 218l10 -8l2 -1l303 -209 l-82 -118l-233 157l-232 -157z" />
<glyph unicode="&#xeb;" horiz-adv-x="1167" d="M98 594q0 250 147 428q71 86 164 134q98 50 205 50q176 0 285 -89q107 -88 107 -219q0 -66 -31.5 -126.5t-87.5 -104.5q-122 -95 -321 -95h-285q-12 0 -18 -6q-4 -5 -7.5 -10.5t-5.5 -10.5t-3 -9.5t-1 -9v-7.5v-5l1 -3l1 -1q24 -167 128 -276.5t239 -109.5q178 0 261 111 l43 57l115 -86l-43 -57q-127 -168 -376 -168q-106 0 -202 48t-169 137q-100 123 -132 286l-7 44q-7 58 -7 98zM254 713q13 2 34 2h278q150 0 232 65q64 50 64 118q0 64 -62.5 114.5t-185.5 50.5q-127 0 -227 -98.5t-133 -251.5zM360 1431v28q0 30 21 51t51 21t51 -21t21 -51 v-28q0 -30 -21 -51t-51 -21t-51 21t-21 51zM729 1431v28q0 30 21 51t51 21t50.5 -21t20.5 -51v-28q0 -30 -20.5 -51t-50.5 -21t-51 21t-21 51z" />
<glyph unicode="&#xec;" horiz-adv-x="604" d="M59 1521l88 113l369 -283l-87 -114zM200 -20v1226h143v-1226h-143z" />
<glyph unicode="&#xed;" horiz-adv-x="598" d="M53 1351l370 283l87 -113l-370 -284zM233 -20v1226h143v-1226h-143z" />
<glyph unicode="&#xee;" horiz-adv-x="782" d="M57 1430l314 218l11 -7l2 -1l302 -210l-81 -117l-233 156l-233 -156zM300 -20v1226h144v-1226h-144z" />
<glyph unicode="&#xef;" horiz-adv-x="681" d="M66 1431v28q0 30 20.5 51t50.5 21t51 -21t21 -51v-28q0 -30 -21 -51t-51 -21t-50.5 21t-20.5 51zM251 -20v1226h144v-1226h-144zM434 1431v28q0 30 21 51t51 21t51 -21t21 -51v-28q0 -30 -21 -51t-51 -21t-51 21t-21 51z" />
<glyph unicode="&#xf0;" horiz-adv-x="350" />
<glyph unicode="&#xf1;" horiz-adv-x="1187" d="M119 -20v754q0 194 127 332q62 67 144 103.5t171 36.5q186 0 314 -139q129 -138 129 -333v-754h-144v754q0 137 -88 233t-211 96t-211 -96t-88 -233v-754h-143zM269 1423l30 65q50 107 127 126q34 8 70.5 -3.5t55 -24t50.5 -38.5q49 -39 63 -41q20 13 45 66l31 65 l130 -61l-31 -65q-59 -126 -142 -145q-11 -3 -33 -3q-30 0 -61.5 13.5t-47 24.5t-43.5 33q-44 34 -54 38q-15 -15 -29 -45l-31 -66z" />
<glyph unicode="&#xf2;" horiz-adv-x="1323" d="M96 586q0 119 39 228.5t112 195.5q74 86 167 132q98 49 209 49t209 -49q93 -46 168 -133q73 -86 112 -195t39 -228t-39 -228.5t-112 -195.5q-73 -85 -168 -132q-98 -49 -209 -49t-209 49q-93 46 -167 132q-73 86 -112 195.5t-39 228.5zM240 586q0 -192 112.5 -327 t270.5 -135t271 135t113 327t-113 327t-271 135t-270.5 -135t-112.5 -327zM395 1521l11 14l76 99l370 -283l-87 -114z" />
<glyph unicode="&#xf3;" horiz-adv-x="1323" d="M96 586q0 119 39 228.5t112 195.5q74 86 167 132q98 49 209 49t209 -49q93 -46 168 -133q73 -86 112 -195t39 -228t-39 -228.5t-112 -195.5q-73 -85 -168 -132q-98 -49 -209 -49t-209 49q-93 46 -167 132q-73 86 -112 195.5t-39 228.5zM240 586q0 -192 112.5 -327 t270.5 -135t271 135t113 327t-113 327t-271 135t-270.5 -135t-112.5 -327zM375 1351l370 283l87 -113l-370 -284z" />
<glyph unicode="&#xf4;" horiz-adv-x="1343" d="M109 586q0 119 38.5 229t111.5 195t168 132q98 49 209 49t209 -49q92 -45 167 -133q73 -86 112 -195t39 -228t-39 -228.5t-112 -195.5q-74 -86 -167 -132q-98 -49 -209 -49t-209 49q-95 47 -168 132t-111.5 195t-38.5 229zM252 586q0 -192 113 -327t271 -135t270.5 135 t112.5 327t-112.5 327t-270.5 135t-271 -135t-113 -327zM321 1432l314 218l11 -8l1 -1l303 -209l-82 -118l-232 157l-233 -157z" />
<glyph unicode="&#xf5;" horiz-adv-x="1323" d="M96 586q0 119 39 228.5t112 195.5q74 86 167 132q98 49 209 49t209 -49q93 -46 168 -133q73 -86 112 -195t39 -228t-39 -228.5t-112 -195.5q-73 -85 -168 -132q-98 -49 -209 -49t-209 49q-93 46 -167 132q-73 86 -112 195.5t-39 228.5zM240 586q0 -192 112.5 -327 t270.5 -135t271 135t113 327t-113 327t-271 135t-270.5 -135t-112.5 -327zM323 1423l30 65q50 107 127 126q34 8 70.5 -3.5t55 -24t50.5 -38.5q49 -39 62 -41q21 14 46 66l30 65l130 -61l-30 -65q-59 -125 -143 -145q-11 -3 -32 -3q-30 0 -61.5 13.5t-47 24.5t-43.5 33 q-43 34 -55 38q-14 -14 -29 -46l-31 -65z" />
<glyph unicode="&#xf6;" horiz-adv-x="1323" d="M96 586q0 119 39 228.5t112 195.5q74 86 167 132q98 49 209 49t209 -49q93 -46 168 -133q73 -86 112 -195t39 -228t-39 -228.5t-112 -195.5q-73 -85 -168 -132q-98 -49 -209 -49t-209 49q-93 46 -167 132q-73 86 -112 195.5t-39 228.5zM240 586q0 -192 112.5 -327 t270.5 -135t271 135t113 327t-113 327t-271 135t-270.5 -135t-112.5 -327zM367 1431v28q0 30 21 51t51 21t51 -21t21 -51v-28q0 -30 -21 -51t-51 -21t-51 21t-21 51zM736 1431v28q0 30 21 51t51 21t50.5 -21t20.5 -51v-28q0 -30 -20.5 -51t-50.5 -21t-51 21t-21 51z" />
<glyph unicode="&#xf7;" horiz-adv-x="1306" d="M100 549v141h1028v-141h-1028zM493 99q0 51 32.5 85t81.5 34q50 0 81.5 -34t31.5 -85t-31.5 -85t-82.5 -34q-50 0 -81.5 34.5t-31.5 84.5zM493 1122q0 51 32.5 85t81.5 34q50 0 81.5 -34t31.5 -85t-31.5 -85t-82.5 -34q-50 0 -81.5 34.5t-31.5 84.5z" />
<glyph unicode="&#xf8;" horiz-adv-x="1333" d="M88 -20l150 201q-136 174 -136 405q0 119 39 228.5t112 195.5q74 86 167 132q98 49 210 49q111 0 209 -49q31 -15 78 -49l85 113h178l-159 -214q136 -172 136 -406q0 -119 -39 -228.5t-112 -195.5q-74 -86 -167 -132q-98 -49 -209 -49q-112 0 -210 49q-41 21 -79 49 l-74 -99h-179zM246 586q0 -159 82 -285l504 677q-94 70 -202 70q-158 0 -271 -135t-113 -327zM427 194q94 -70 203 -70q158 0 270.5 135t112.5 327q0 160 -82 285z" />
<glyph unicode="&#xf9;" horiz-adv-x="1179" d="M117 452v754h143v-754q0 -137 88 -233t211 -96t211 96t88 233v754h143v-754q0 -194 -127 -332q-62 -67 -144 -103.5t-171 -36.5t-171 36.5t-144 103.5q-127 138 -127 332zM331 1521l11 14l76 99l370 -283l-88 -114z" />
<glyph unicode="&#xfa;" horiz-adv-x="1179" d="M0 0l347 1364l353 270l88 -113l-370 -284l-87 114l69 250q3 8 -1 -11q-29 -137 -399 -1590zM117 452v754h143v-754q0 -137 88 -233t211 -96t211 96t88 233v754h143v-754q0 -194 -127 -332q-62 -67 -144 -103.5t-171 -36.5t-171 36.5t-144 103.5q-127 138 -127 332z" />
<glyph unicode="&#xfb;" horiz-adv-x="1191" d="M125 452v754h143v-754q0 -137 88 -233t211 -96t211 96t88 233v754h144v-754q0 -193 -128 -332q-62 -67 -144 -103.5t-171 -36.5q-185 0 -314 140q-128 139 -128 332zM253 1430l314 218l10 -7l2 -1l303 -210l-82 -117l-233 156l-232 -156z" />
<glyph unicode="&#xfc;" horiz-adv-x="1179" d="M117 452v754h143v-754q0 -137 88 -233t211 -96t211 96t88 233v754h143v-754q0 -194 -127 -332q-62 -67 -144 -103.5t-171 -36.5t-171 36.5t-144 103.5q-127 138 -127 332zM303 1431v28q0 30 21 51t51 21t50.5 -21t20.5 -51v-28q0 -30 -20.5 -51t-50.5 -21t-51 21t-21 51z M672 1431v28q0 30 20.5 51t50.5 21t51 -21t21 -51v-28q0 -30 -21 -51t-51 -21t-50.5 21t-20.5 51z" />
<glyph unicode="&#x152;" horiz-adv-x="2197" d="M102 799q0 162 49.5 310.5t141.5 264.5q93 116 213 179q125 67 266 67q109 0 210 -41v46l998 1v-144h-854v-572q29 7 64 7h790v-143h-790q-40 0 -54 -16q-10 -10 -10 -29v-607l854 1v-143l-998 -2v41q-103 -41 -210 -41q-141 0 -266 67q-118 62 -213 180 q-92 116 -141.5 264t-49.5 310zM246 799q0 -185 71.5 -341.5t192.5 -246t262 -89.5q112 0 210 56v1242q-102 57 -210 57q-141 0 -262 -90t-192.5 -246.5t-71.5 -341.5z" />
<glyph unicode="&#x153;" horiz-adv-x="2127" d="M98 586q0 119 39 228.5t112 195.5q74 86 167 132q98 49 209 49q112 0 210 -49q93 -46 167 -132q39 -46 76 -114q33 69 80 126q71 86 164 134q98 50 205 50q176 0 285 -89q107 -88 107 -219q0 -66 -31.5 -126.5t-87.5 -104.5q-122 -95 -321 -95h-285q-12 0 -18 -6 q-4 -5 -7.5 -10.5t-5 -10.5t-2.5 -9.5t-1 -9v-7.5v-5l1 -3v-1q24 -167 128 -276.5t239 -109.5q179 0 262 111l42 57l115 -86l-43 -57q-127 -168 -376 -168q-106 0 -202 48t-169 137q-45 56 -75 117q-36 -70 -80 -121q-74 -86 -167 -132q-98 -49 -210 -49q-111 0 -209 49 q-93 46 -167 132q-73 86 -112 195.5t-39 228.5zM242 586q0 -192 112.5 -327t270.5 -135t271 135t113 327t-113 327t-271 135t-270.5 -135t-112.5 -327zM1167 713q13 2 34 2h278q151 0 233 65q64 50 64 118q0 64 -62.5 114.5t-185.5 50.5q-127 0 -227.5 -98.5t-133.5 -251.5z " />
<glyph unicode="&#x2000;" horiz-adv-x="1014" />
<glyph unicode="&#x2001;" horiz-adv-x="2028" />
<glyph unicode="&#x2002;" horiz-adv-x="1014" />
<glyph unicode="&#x2003;" horiz-adv-x="2028" />
<glyph unicode="&#x2004;" horiz-adv-x="676" />
<glyph unicode="&#x2005;" horiz-adv-x="507" />
<glyph unicode="&#x2006;" horiz-adv-x="338" />
<glyph unicode="&#x2007;" horiz-adv-x="338" />
<glyph unicode="&#x2008;" horiz-adv-x="253" />
<glyph unicode="&#x2009;" horiz-adv-x="405" />
<glyph unicode="&#x200a;" horiz-adv-x="112" />
<glyph unicode="&#x2010;" horiz-adv-x="872" d="M115 535v143h604v-143h-604z" />
<glyph unicode="&#x2011;" horiz-adv-x="872" d="M115 535v143h604v-143h-604z" />
<glyph unicode="&#x2012;" horiz-adv-x="872" d="M115 535v143h604v-143h-604z" />
<glyph unicode="&#x2013;" horiz-adv-x="1292" d="M115 535v143h1024v-143h-1024z" />
<glyph unicode="&#x2014;" horiz-adv-x="2316" d="M115 535v143h2048v-143h-2048z" />
<glyph unicode="&#x202f;" horiz-adv-x="405" />
<glyph unicode="&#x205f;" horiz-adv-x="507" />
<glyph unicode="&#x20ac;" horiz-adv-x="1648" d="M90 605v145h165q-1 20 -1 54v31h-164v145h179q41 231 176 399q94 117 214 180q125 67 267 67q163 0 308 -91q134 -83 229 -236l38 -62l-123 -75l-37 61q-76 124 -185 191.5t-230 67.5q-180 0 -322 -141.5t-188 -360.5h525v-145h-543v-31q0 -20 2 -54h541v-145h-520 q51 -213 190.5 -346t314.5 -133q121 0 229.5 67t184.5 191l38 62l123 -75l-38 -62q-95 -153 -229 -236q-145 -91 -308 -91q-142 0 -267 67q-120 63 -214 180q-127 159 -172 376h-183z" />
<glyph unicode="&#x25fc;" horiz-adv-x="1208" d="M0 0v1208h1208v-1208h-1208z" />
</font>
</defs>
</svg>
